Karlos.2024.1080p.WEB-DL.AAC2.0.H.264

Фильмы
Ответить
Аватара пользователя
nokra
Сообщения: 15169
Зарегистрирован: 29 ноя 2020, 15:42
Откуда: Ružomberok , Slovak & Czech
Благодарил (а): 6758 раз
Поблагодарили: 105788 раз

Karlos.2024.1080p.WEB-DL.AAC2.0.H.264

Сообщение: # 77811Сообщение nokra »

Karlos.2024.1080p.WEB-DL.AAC2.0.H.264

Изображение

Celovečerní dokument o jednom z fenoménů dneška Karlosovi Vémolovi. Zápasy MMA se pohybují na pomezí sportu a zábavy, fascinují davy lidí, přitahují pozornost a plní stránky novin. Vémola je tím, kdo u nás pomáhal tuto slávu novodobých gladiátorských zápasů utvářet. Film plný unikátních a archivních záběrů vznikal 15 let. Ukáže, kdo ve skutečnosti je Karlos Vémola, jaký je mimo světla reflektorů a odkud se vlastně vzal.

mediainfo
Formát : Matroska
Format version : Version 4
Velikost souboru : 3,06 GiB
Duration : 1 h 27 min
Celkový BitRate : 4 994 kb/s
Frame rate : 25,000 FPS
Encoded date : 2024-05-25 10:13:28 UTC
Použitý software : mkvmerge v84.0 ('Sleeper') 64-bit
Enkódoval : libebml v1.4.5 + libmatroska v1.7.1

Video
ID : 1
Formát : AVC
Formát/Info : Advanced Video Codec
Format profile : Main@L4
Format settings : CABAC / 4 Ref Frames
Format settings, CABAC : Ano
Format settings, Reference frames : 4 frames
Codec ID : V_MPEG4/ISO/AVC
Duration : 1 h 27 min
Bit rate : 5 000 kb/s
Šířka : 1 920pixely
Výška : 1 080pixely
Poměr stran : 16:9
Frame rate mode : Constant
Frame rate : 25,000 FPS
Color space : YUV
Chroma subsampling : 4:2:0
Bit depth : 8 bits
Scan type : Progressive
Bits/(Pixel*Frame) : 0.096
Stream size : 2,98 GiB (97%)
Enkódoval : x264 core 155 r2917 0a84d98
Nastavení enkoderu : cabac=1 / ref=3 / deblock=1:0:0 / analyse=0x1:0x111 / me=hex / subme=7 / psy=1 / psy_rd=1.00:0.00 / mixed_ref=1 / me_range=16 / chroma_me=1 / trellis=1 / 8x8dct=0 / cqm=0 / deadzone=21,11 / fast_pskip=1 / chroma_qp_offset=-2 / threads=30 / lookahead_threads=5 / sliced_threads=0 / nr=0 / decimate=1 / interlaced=0 / bluray_compat=0 / constrained_intra=0 / bframes=2 / b_pyramid=2 / b_adapt=1 / b_bias=0 / direct=1 / weightb=1 / open_gop=0 / weightp=2 / keyint=75 / keyint_min=38 / scenecut=0 / intra_refresh=0 / rc_lookahead=40 / rc=abr / mbtree=1 / bitrate=5000 / ratetol=1.0 / qcomp=0.60 / qpmin=2 / qpmax=69 / qpstep=3 / vbv_maxrate=10000 / vbv_bufsize=20000 / nal_hrd=none / filler=0 / ip_ratio=1.40 / aq=1:1.00
Default : Ano
Forced : Ne

Audio
ID : 2
Formát : AAC LC
Formát/Info : Advanced Audio Codec Low Complexity
Codec ID : A_AAC-2
Duration : 1 h 27 min
Bit rate : 128 kb/s
Kanál(y) : 2 kanály
Channel layout : L R
Sampling rate : 44,1 kHz
Frame rate : 43,066 FPS (1024 SPF)
Compression mode : Lossy
Stream size : 80,3 MiB (3%)
Jazyk : Czech
Default : Ano
Forced : Ne
 Скрытый текст. Для просмотра нужно поблагодарить автора за это сообщение
:ar: ( HD 1080 , zvuk AAC...) :ar:
★Nokra ™ ® 7.z ♫★

xDuoo X2S Hi-Res
Fiio M11 Pro Hi-Res
https://www.radioenjoy.org/ :ar:
Ответить

Вернуться в «Cinema»