AC/DC No Bull [1996] [Director s Cut] 1080p BDRip x265 TrueHD 5 1 Kira [SEV]

Ответить
Аватара пользователя
nokra
Сообщения: 11554
Зарегистрирован: 29 ноя 2020, 15:42
Откуда: Slovak & Czech , Ružomberok
Благодарил (а): 5568 раз
Поблагодарили: 80690 раз

AC/DC No Bull [1996] [Director s Cut] 1080p BDRip x265 TrueHD 5 1 Kira [SEV]

Сообщение: # 70729Сообщение nokra »

AC/DC No Bull [1996] [Director s Cut] 1080p BDRip x265 TrueHD 5 1 Kira [SEV]



Media Information

Code:
General
Unique ID : 265083942937871325345434424030967520431 (0xC76D4F72F7E83CCBD3E371DC659A5CAF)
Complete name : AC_DC - No Bull [1996] [Director's Cut] 1080p BDRip x265 TrueHD 5.1 Kira [SEV].mkv
Format : Matroska
Format version : Version 4
File size : 14.1 GiB
Duration : 2 h 3 min
Overall bit rate mode : Variable
Overall bit rate : 16.3 Mb/s
Frame rate : 29.970 FPS
Movie name : | AC/DC : No Bull [1996] [Director's Cut] | 1080p | BDRip | x265 | TrueHD 5.1 @ 8575 Kbps | Kira [SEV] |
Encoded date : 2023-06-01 21:07:38 UTC
Writing application : mkvmerge v72.0.0 ('Minuano (Six-eight)') 64-bit
Writing library : libebml v1.4.4 + libmatroska v1.7.1

Video
ID : 1
Format : HEVC
Format/Info : High Efficiency Video Coding
Format profile : Main 10@L4@Main
Codec ID : V_MPEGH/ISO/HEVC
Duration : 2 h 3 min
Bit rate : 7 000 kb/s
Width : 1 920 pixels
Height : 1 080 pixels
Display aspect ratio : 16:9
Frame rate mode : Variable
Frame rate : 29.970 (30000/1001) FPS
Color space : YUV
Chroma subsampling : 4:2:0
Bit depth : 10 bits
Bits/(Pixel*Frame) : 0.113
Stream size : 6.05 GiB (43%)
Title : | AC/DC : No Bull [1996] [Director's Cut] | 1080p | BDRip | x265 | TrueHD 5.1 @ 8575 Kbps | Kira [SEV] |
Writing library : x265 3.5+96-c07d076cf:[Windows][MSVC 1935][64 bit] 10bit
Encoding settings : cpuid=1111039 / frame-threads=4 / numa-pools=16 / wpp / no-pmode / no-pme / no-psnr / no-ssim / log-level=2 / input-csp=1 / input-res=1920x1080 / interlace=0 / total-frames=222355 / level-idc=0 / high-tier=1 / uhd-bd=0 / ref=5 / no-allow-non-conformance / no-repeat-headers / annexb / no-aud / no-eob / no-eos / no-hrd / info / hash=0 / temporal-layers=0 / open-gop / min-keyint=25 / keyint=250 / gop-lookahead=0 / bframes=16 / b-adapt=2 / b-pyramid / bframe-bias=0 / rc-lookahead=100 / lookahead-slices=0 / scenecut=40 / no-hist-scenecut / radl=0 / no-splice / no-intra-refresh / ctu=64 / min-cu-size=8 / no-rect / no-amp / max-tu-size=32 / tu-inter-depth=4 / tu-intra-depth=4 / limit-tu=4 / rdoq-level=2 / dynamic-rd=0.00 / no-ssim-rd / signhide / no-tskip / nr-intra=0 / nr-inter=0 / no-constrained-intra / no-strong-intra-smoothing / max-merge=5 / limit-refs=0 / limit-modes / me=3 / subme=7 / merange=92 / temporal-mvp / no-frame-dup / no-hme / weightp / weightb / no-analyze-src-pics / deblock=0:0 / no-sao / no-sao-non-deblock / rd=6 / selective-sao=0 / no-early-skip / rskip / no-fast-intra / no-tskip-fast / no-cu-lossless / b-intra / no-splitrd-skip / rdpenalty=0 / psy-rd=1.30 / psy-rdoq=1.00 / no-rd-refine / no-lossless / cbqpoffs=0 / crqpoffs=0 / rc=abr / bitrate=7000 / qcomp=0.60 / qpstep=4 / stats-write=0 / stats-read=2 / cplxblur=20.0 / qblur=0.5 / ipratio=1.40 / pbratio=1.30 / aq-mode=3 / aq-strength=1.00 / cutree / zone-count=0 / no-strict-cbr / qg-size=32 / no-rc-grain / qpmax=69 / qpmin=0 / no-const-vbv / sar=0 / overscan=0 / videoformat=5 / range=0 / colorprim=2 / transfer=2 / colormatrix=2 / chromaloc=0 / display-window=0 / cll=0,0 / min-luma=0 / max-luma=1023 / log2-max-poc-lsb=8 / vui-timing-info / vui-hrd-info / slices=1 / no-opt-qp-pps / no-opt-ref-list-length-pps / no-multi-pass-opt-rps / scenecut-bias=0.05 / no-opt-cu-delta-qp / no-aq-motion / no-hdr10 / no-hdr10-opt / no-dhdr10-opt / no-idr-recovery-sei / analysis-reuse-level=0 / analysis-save-reuse-level=0 / analysis-load-reuse-level=0 / scale-factor=0 / refine-intra=0 / refine-inter=0 / refine-mv=1 / refine-ctu-distortion=0 / no-limit-sao / ctu-info=0 / no-lowpass-dct / refine-analysis-type=0 / copy-pic=1 / max-ausize-factor=1.0 / no-dynamic-refine / no-single-sei / no-hevc-aq / no-svt / no-field / qp-adaptation-range=1.00 / scenecut-aware-qp=0conformance-window-offsets / right=0 / bottom=0 / decoder-max-rate=0 / no-vbv-live-multi-pass / no-mcstf / no-sbrc
Language : English
Default : Yes
Forced : No

Audio #1
ID : 2
Format : MLP FBA
Format/Info : Meridian Lossless Packing FBA
Commercial name : Dolby TrueHD
Codec ID : A_TRUEHD
Duration : 2 h 3 min
Bit rate mode : Variable
Bit rate : 8 575 kb/s
Maximum bit rate : 9 504 kb/s
Channel(s) : 6 channels
Channel layout : L R C LFE Ls Rs
Sampling rate : 96.0 kHz
Frame rate : 1 200.000 FPS (80 SPF)
Compression mode : Lossless
Stream size : 7.40 GiB (53%)
Title : English BD TrueHD 5.1 @ 8575 Kbps
Language : English
Default : Yes
Forced : No

Audio #2
ID : 3
Format : AC-3
Format/Info : Audio Coding 3
Commercial name : Dolby Digital
Codec ID : A_AC3
Duration : 2 h 3 min
Bit rate mode : Constant
Bit rate : 640 kb/s
Channel(s) : 6 channels
Channel layout : L R C LFE Ls Rs
Sampling rate : 48.0 kHz
Frame rate : 31.250 FPS (1536 SPF)
Compression mode : Lossy
Stream size : 566 MiB (4%)
Title : English BD AC-3 DD 5.1 @ 640 Kbps
Language : English
Service kind : Complete Main
Default : No
Forced : No

Menu
00:00:00.000 : en:Introduction
00:01:59.720 : en:Back In Black
00:06:17.077 : en:Shot Down In Flames
00:09:57.597 : en:Thunderstruck
00:15:25.124 : en:Girls Got Rhythm
00:19:28.367 : en:Hard as a Rock
00:24:17.790 : en:Shoot To Thrill
00:29:48.420 : en:Boogie Man
00:40:16.714 : en:Hail Caesar
00:45:58.990 : en:Hells Bells
00:52:03.654 : en:Dog Eat Dog
00:56:57.180 : en:The Jack
01:03:34.944 : en:Ballbreaker
01:08:15.959 : en:Rock and Roll Ain't Noise Pollution
01:13:21.530 : en:Dirty Deeds Done Dirt Cheap
01:18:05.948 : en:You Shook Me All Night Long
01:22:01.550 : en:Whole Lotta Rosie
01:27:21.636 : en:T.N.T.
01:31:06.461 : en:Let There Be Rock
01:47:25.539 : en:Highway To Hell
01:51:52.039 : en:For Those About To Rock (We Salute You)
01:59:02.402 : en:Credits

Source Information
ACDC.No.Bull.1996.DC.1080i.BluRay.REMUX.VC-1.TrueHD.5.1-EPSiLON (26.1 GB) (Thanks!)

Code:
General
Unique ID : 332134460228787659021067948366840507634 (0xF9DEC52F3801C8BA42605D7260ACACF2)
Complete name : ACDC.No.Bull.1996.DC.1080i.BluRay.REMUX.VC-1.TrueHD.5.1-EPSiLON.mkv
Format : Matroska
Format version : Version 4
File size : 26.2 GiB
Duration : 2 h 3 min
Overall bit rate mode : Variable
Overall bit rate : 30.3 Mb/s
Frame rate : 29.970 FPS
Encoded date : 2018-05-14 16:55:17 UTC
Writing application : mkvmerge v23.0.0 ('The Bride Said No') 64-bit
Writing library : libebml v1.3.6 + libmatroska v1.4.9

Video
ID : 1
Format : VC-1
Format profile : Advanced@L3
Codec ID : V_MS/VFW/FOURCC / WVC1
Codec ID/Hint : Microsoft
Duration : 2 h 3 min
Bit rate : 21.0 Mb/s
Width : 1 920 pixels
Height : 1 080 pixels
Display aspect ratio : 16:9
Frame rate mode : Constant
Frame rate : 29.970 (30000/1001) FPS
Color space : YUV
Chroma subsampling : 4:2:0
Bit depth : 8 bits
Scan type : Interlaced
Scan order : Top Field First
Compression mode : Lossy
Bits/(Pixel*Frame) : 0.338
Stream size : 18.1 GiB (69%)
Title : VC-1 Video / 21000 kbps / 1080i / 29.970 fps / 16:9 / Advanced Profile 3
Language : English
Default : Yes
Forced : No

Audio #1
ID : 2
Format : MLP FBA
Format/Info : Meridian Lossless Packing FBA
Commercial name : Dolby TrueHD
Codec ID : A_TRUEHD
Duration : 2 h 3 min
Bit rate mode : Variable
Bit rate : 8 575 kb/s
Maximum bit rate : 9 504 kb/s
Channel(s) : 6 channels
Channel layout : L R C LFE Ls Rs
Sampling rate : 96.0 kHz
Frame rate : 1 200.000 FPS (80 SPF)
Compression mode : Lossless
Stream size : 7.40 GiB (28%)
Title : Dolby TrueHD Audio / 5.1 / 96 kHz / 8569 kbps / 24-bit
Language : English
Default : Yes
Forced : No

Audio #2
ID : 3
Format : AC-3
Format/Info : Audio Coding 3
Commercial name : Dolby Digital
Codec ID : A_AC3
Duration : 2 h 3 min
Bit rate mode : Constant
Bit rate : 640 kb/s
Channel(s) : 6 channels
Channel layout : L R C LFE Ls Rs
Sampling rate : 48.0 kHz
Frame rate : 31.250 FPS (1536 SPF)
Compression mode : Lossy
Stream size : 566 MiB (2%)
Title : Compatibility Track / Dolby Digital Audio / 5.1 / 48 kHz / 640 kbps
Language : English
Service kind : Complete Main
Default : No
Forced : No

Menu
00:00:00.000 : en:Introduction
00:01:59.720 : en:Back In Black
00:06:17.077 : en:Shot Down In Flames
00:09:57.597 : en:Thunderstruck
00:15:25.124 : en:Girls Got Rhythm
00:19:28.367 : en:Hard as a Rock
00:24:17.790 : en:Shoot To Thrill
00:29:48.420 : en:Boogie Man
00:40:16.714 : en:Hail Caesar
00:45:58.990 : en:Hells Bells
00:52:03.654 : en:Dog Eat Dog
00:56:57.180 : en:The Jack
01:03:34.944 : en:Ballbreaker
01:08:15.959 : en:Rock and Roll Ain't Noise Pollution
01:13:21.530 : en:Dirty Deeds Done Dirt Cheap
01:18:05.948 : en:You Shook Me All Night Long
01:22:01.550 : en:Whole Lotta Rosie
01:27:21.636 : en:T.N.T.
01:31:06.461 : en:Let There Be Rock
01:47:25.539 : en:Highway To Hell
01:51:52.039 : en:For Those About To Rock (We Salute You)
01:59:02.402 : en:Credits

We have no issue with individuals posting or re-uploading our torrents on a platform we aren't on. However, if this is something you'd like to do, please do so in a 'as-is' format. We ask that you do not create a new torrent, include all descriptions you see above including the SEV logo, tags, notes and screenshots. If you'd like to become a permanent poster on a website we don't post to, feel free to get in contact with a Sublime Encoded Video member.

We are recruiting/training new members for SEV & seedbox providers as well as people to help out with subtitles.
As you already know, we deliver quality, so you know the standard.
If you're interested, feel free to contact any of the team members.


Изображение
Изображение
Изображение
 Скрытый текст. Для просмотра нужно поблагодарить автора за это сообщение
:ar: ( HD 1080 , zvuk AAC...) :ar:
★Nokra ™ ® 7.z ♫★

xDuoo X2S Hi-Res
Fiio M11 Pro Hi-Res :ar:
Ответить

Вернуться в «Video from other countries»