Sisu.2022.1080p.AMZN.WEB-DL.DDP5.1.Atmos.H.264-CMRG

Фильмы
Ответить
Аватара пользователя
nokra
Сообщения: 15150
Зарегистрирован: 29 ноя 2020, 15:42
Откуда: Ružomberok , Slovak & Czech
Благодарил (а): 6755 раз
Поблагодарили: 105638 раз

Sisu.2022.1080p.AMZN.WEB-DL.DDP5.1.Atmos.H.264-CMRG

Сообщение: # 69412Сообщение nokra »

Sisu.2022.1080p.AMZN.WEB-DL.DDP5.1.Atmos.H.264-CMRG (Titulky: CZ , French , English , Forced)

Изображение

mediainfo

Formát : Matroska
Format version : Version 4 / Version 2
Velikost souboru : 6,42 GiB
Duration : 1 h 31 min
Celkový BitRate : 10,1 Mb/s
Použitý software : mkvmerge v75.0.0 ('Goliath') 64-bit
Enkódoval : libebml v1.4.4 + libmatroska v1.7.1

Video
ID : 1
Formát : AVC
Formát/Info : Advanced Video Codec
Format profile : High@L4
Format settings : CABAC / 4 Ref Frames
Format settings, CABAC : Ano
Format settings, Reference frames : 4 frames
Codec ID : V_MPEG4/ISO/AVC
Duration : 1 h 31 min
Bit rate mode : Constant
Bit rate : 9 290 kb/s
Nominal bit rate : 10 000 kb/s
Šířka : 1 920pixely
Výška : 800pixely
Poměr stran : 2,40:1
Frame rate mode : Constant
Frame rate : 23,976 (24000/1001) FPS
Color space : YUV
Chroma subsampling : 4:2:0
Bit depth : 8 bits
Scan type : Progressive
Bits/(Pixel*Frame) : 0.252
Stream size : 5,93 GiB (92%)
Jazyk : English
Default : Ano
Forced : Ne
Color range : Limited
Color primaries : BT.709
Transfer characteristics : BT.709
Matrix coefficients : BT.709

Audio
ID : 2
Formát : E-AC-3 JOC
Formát/Info : Enhanced AC-3 with Joint Object Coding
Commercial name : Dolby Digital Plus with Dolby Atmos
Codec ID : A_EAC3
Duration : 1 h 31 min
Bit rate mode : Constant
Bit rate : 768 kb/s
Kanál(y) : 6 kanály
Channel layout : L R C LFE Ls Rs
Sampling rate : 48,0 kHz
Frame rate : 31,250 FPS (1536 SPF)
Compression mode : Lossy
Stream size : 502 MiB (8%)
Jazyk : English
Service kind : Complete Main
Default : Ano
Forced : Ne
Complexity index : 16
Number of dynamic objects : 15
Bed channel count : 1 kanál
Bed channel configuration : LFE

Text #1
ID : 3
Formát : UTF-8
Codec ID : S_TEXT/UTF8
Codec ID/Info : UTF-8 Plain Text
Duration : 4 min 34 s
Bit rate : 6 b/s
Frame rate : 0,044 FPS
Count of elements : 12
Stream size : 228 Bytes (0%)
Titul : Forced
Jazyk : English
Default : Ano
Forced : Ano

Text #2
ID : 4
Formát : UTF-8
Codec ID : S_TEXT/UTF8
Codec ID/Info : UTF-8 Plain Text
Duration : 1 h 24 min
Bit rate : 20 b/s
Frame rate : 0,127 FPS
Count of elements : 642
Stream size : 12,6 KiB (0%)
Titul : SDH
Jazyk : English
Default : Ne
Forced : Ne

Text #3
ID : 5
Formát : UTF-8
Codec ID : S_TEXT/UTF8
Codec ID/Info : UTF-8 Plain Text
Duration : 1 h 23 min
Bit rate : 7 b/s
Frame rate : 0,043 FPS
Count of elements : 216
Stream size : 4,92 KiB (0%)
Jazyk : English
Default : Ne
Forced : Ne

Text #4
ID : 6
Formát : UTF-8
Codec ID : S_TEXT/UTF8
Codec ID/Info : UTF-8 Plain Text
Duration : 1 h 24 min
Bit rate : 8 b/s
Frame rate : 0,045 FPS
Count of elements : 228
Stream size : 5,24 KiB (0%)
Jazyk : French
Default : Ne
Forced : Ne


Titulky: CZ , French , English , Forced...
 Скрытый текст. Для просмотра нужно поблагодарить автора за это сообщение
★Nokra ™ ® 7.z ♫★

xDuoo X2S Hi-Res
Fiio M11 Pro Hi-Res
https://www.radioenjoy.org/ :ar:
Ответить

Вернуться в «Cinema»