Respect.Aretha Franklin.2021.720p.WEB-DL.DD+5.1.Cz+EN,H.264-DeDo

Фильмы
Ответить
Аватара пользователя
nokra
Сообщения: 4242
Зарегистрирован: 29 ноя 2020, 15:42
Благодарил (а): 1343 раза
Поблагодарили: 26568 раз

Respect.Aretha Franklin.2021.720p.WEB-DL.DD+5.1.Cz+EN,H.264-DeDo

Сообщение: # 51469Сообщение nokra »

Respect (Aretha Franklin).2021.720p.WEB-DL.DD+5.1.CZ+EN.H.264-DeDo

Изображение

Originalny nazev: Respect
Prelozeny nazev: Respect
Rok vydani: 2021
Delka: 145 min

mediainfo
General
Unique ID : 44188192884580506936179925984323144826 (0x213E561D6C96A48543F0722AAF518C7A)
Format : Matroska
Format version : Version 4
File size : 5.75 GiB
Duration : 2 h 24 min
Overall bit rate : 5 679 kb/s
Movie name : Respect (2021)
Encoded date : UTC 2021-12-01 10:37:30
Writing application : mkvmerge v63.0.0 ('Everything') 64-bit
Writing library : libebml v1.4.2 + libmatroska v1.6.4

Video
ID : 1
Format : AVC
Format/Info : Advanced Video Codec
Format profile : [email protected]
Format settings : CABAC / 2 Ref Frames
Format settings, CABAC : Yes
Format settings, Reference frames : 2 frames
Codec ID : V_MPEG4/ISO/AVC
Duration : 2 h 24 min
Bit rate : 5 037 kb/s
Width : 1 280 pixels
Height : 720 pixels
Display aspect ratio : 16:9
Frame rate mode : Constant
Frame rate : 23.976 (24000/1001) FPS
Color space : YUV
Chroma subsampling : 4:2:0
Bit depth : 8 bits
Scan type : Progressive
Bits/(Pixel*Frame) : 0.228
Stream size : 5.10 GiB (89%)
Title : TreZzoR
Writing library : x264 core 155 r2901 7d0ff22
Default : Yes
Forced : No
Color range : Limited
Color primaries : BT.709
Transfer characteristics : BT.709
Matrix coefficients : BT.709

Audio #1
ID : 2
Format : E-AC-3
Format/Info : Enhanced AC-3
Commercial name : Dolby Digital Plus
Codec ID : A_EAC3
Duration : 2 h 24 min
Bit rate mode : Constant
Bit rate : 256 kb/s
Channel(s) : 6 channels
Channel layout : L R C LFE Ls Rs
Sampling rate : 48.0 kHz
Frame rate : 31.250 FPS (1536 SPF)
Compression mode : Lossy
Stream size : 265 MiB (5%)
Title : Czech E-AC3 5.1 @ 256kbps
Language : Czech
Service kind : Complete Main
Default : Yes
Forced : No

Audio #2
ID : 3
Format : E-AC-3
Format/Info : Enhanced AC-3
Commercial name : Dolby Digital Plus
Codec ID : A_EAC3
Duration : 2 h 24 min
Bit rate mode : Constant
Bit rate : 384 kb/s
Channel(s) : 6 channels
Channel layout : L R C LFE Ls Rs
Sampling rate : 48.0 kHz
Frame rate : 31.250 FPS (1536 SPF)
Compression mode : Lossy
Stream size : 398 MiB (7%)
Title : English E-AC3 5.1 @ 384kbps
Language : English
Service kind : Complete Main
Default : No
Forced : No

Text
ID : 4
Format : UTF-8
Codec ID : S_TEXT/UTF8
Codec ID/Info : UTF-8 Plain Text
Duration : 2 h 23 min
Bit rate : 52 b/s
Count of elements : 2065
Stream size : 54.8 KiB (0%)
Title : Czech
Language : Czech
Default : No
Forced : No


Žáner: Životopisný / Drama / Hudební


Krajina: USA

Réžia: Liesl Tommy

Herci: Jennifer Hudson, Forest Whitaker, Audra McDonald, Saycon Sengbloh, Hailey Kilgore, Brenda Nicole Moorer, Tate Donovan, Marlon Wayans, Marc Maron, Tituss Burgess, Mary J. Blige, Maurice Johnson, Kimberly Scott, Leroy McClain, Albert Jones, Myk Watford, Gilbert Glenn Brown, Heather Headley, Joshua Mikel, Zach Strum, Lodric D. Collins

Hodnotenie: 67%

Pravdivý příběh vzestupu hudební legendy Arethy Franklin. Od jejích počátků, když jako malá zpívala v kostelním sboru, k tomu jak se vypracovala na mezinárodní super hvězdu. (Forum Film CZ)


Odkaz na csfd: https://www.csfd.cz/film/792484-respect/prehled/
Odkaz na imdb: https://www.imdb.com/title/tt2452150/
 Скрытый текст. Для просмотра нужно поблагодарить автора за это сообщение
★Nokra ™ ® 7.z ♫★
Ответить

Вернуться в «Cinema»