Tata Bojs (Alternative Rock)

Ответить
Аватара пользователя
nokra
Сообщения: 5759
Зарегистрирован: 29 ноя 2020, 15:42
Благодарил (а): 2222 раза
Поблагодарили: 37645 раз

Tata Bojs (Alternative Rock)

Сообщение: # 59420Сообщение nokra »

Tata.Bojs.Onlive.From.Dox.2021.1080p.WEB-DL.DD2.0.H.264

Изображение

Originalny nazev: Tata Bojs Onlive from Dox
Prelozeny nazev: Tata Bojs Onlive from Dox
Rok vydani: 2021
Delka: 69 min
Bitrate/kodek:
----------------------------------------------------------------------------------------------------------------------------------------
mediainfo
General
Unique ID : 210315520087288946743088907442005547904 (0x9E394BB8EDEC4477ABAB29BC691D1B80)
Complete name : Tata.Bojs.Onlive.From.Dox.2021.1080p.WEB-DL.DD2.0.H.264.mkv
Format : Matroska
Format version : Version 4
File size : 4.20 GiB
Duration : 1 h 9 min
Overall bit rate mode : Variable
Overall bit rate : 8 628 kb/s
Movie name : Tata Bojs onlive (2021)
Encoded date : UTC 2022-06-01 08:28:24
Writing application : mkvmerge v63.0.0 ('Everything') 64-bit
Writing library : libebml v1.4.2 + libmatroska v1.6.4

Video
ID : 1
Format : AVC
Format/Info : Advanced Video Codec
Format profile : [email protected]
Format settings : CABAC / 4 Ref Frames
Format settings, CABAC : Yes
Format settings, Reference frames : 4 frames
Codec ID : V_MPEG4/ISO/AVC
Duration : 1 h 9 min
Bit rate mode : Variable
Bit rate : 8 250 kb/s
Maximum bit rate : 12.4 Mb/s
Width : 1 920 pixels
Height : 1 080 pixels
Display aspect ratio : 16:9
Frame rate mode : Constant
Frame rate : 25.000 FPS
Color space : YUV
Chroma subsampling : 4:2:0
Bit depth : 8 bits
Scan type : Progressive
Bits/(Pixel*Frame) : 0.159
Stream size : 4.01 GiB (96%)
Title : xxx
Writing library : x264 core 157 r2965 861cec4
Encoding settings : cabac=1 / ref=4 / deblock=1:0:0 / analyse=0x3:0x113 / me=hex / subme=7 / psy=1 / psy_rd=1.00:0.00 / mixed_ref=1 / me_range=16 / chroma_me=1 / trellis=1 / 8x8dct=1 / cqm=0 / deadzone=21,11 / fast_pskip=1 / chroma_qp_offset=-2 / threads=34 / lookahead_threads=5 / sliced_threads=0 / nr=0 / decimate=1 / interlaced=0 / bluray_compat=0 / constrained_intra=0 / bframes=3 / b_pyramid=2 / b_adapt=1 / b_bias=0 / direct=1 / weightb=1 / open_gop=0 / weightp=2 / keyint=100 / keyint_min=100 / scenecut=40 / intra_refresh=0 / rc_lookahead=40 / rc=2pass / mbtree=1 / bitrate=8250 / ratetol=1.0 / qcomp=0.60 / qpmin=0 / qpmax=69 / qpstep=4 / cplxblur=20.0 / qblur=0.5 / vbv_maxrate=12375 / vbv_bufsize=6187 / nal_hrd=vbr / filler=0 / ip_ratio=1.40 / aq=1:1.00
Default : Yes
Forced : No
Color range : Limited
Color primaries : BT.709
Transfer characteristics : BT.709
Matrix coefficients : BT.709

Audio
ID : 2
Format : AC-3
Format/Info : Audio Coding 3
Commercial name : Dolby Digital
Codec ID : A_AC3
Duration : 1 h 9 min
Bit rate mode : Constant
Bit rate : 384 kb/s
Channel(s) : 2 channels
Channel layout : L R
Sampling rate : 48.0 kHz
Frame rate : 31.250 FPS (1536 SPF)
Compression mode : Lossy
Stream size : 191 MiB (4%)
Title : Czech AC3 2.0 @ 384kbps
Language : Czech
Service kind : Complete Main
Default : Yes
Forced : No

----------------------------------------------------------------------------------------------------------------------------------
 Скрытый текст. Для просмотра нужно поблагодарить автора за это сообщение
★Nokra ™ ® 7.z ♫★

xDuoo X2S Hi-Res
Fiio M11 Pro Hi-Res :ar:
Ответить

Вернуться в «Video - East Europe»