Rammstein-Zeit-2022 (VinylRip DSD128, EU Universal Music Group)

Ответить
Аватара пользователя
nokra
Сообщения: 6637
Зарегистрирован: 29 ноя 2020, 15:42
Благодарил (а): 3229 раз
Поблагодарили: 44309 раз

Rammstein-Zeit-2022 (VinylRip DSD128, EU Universal Music Group)

Сообщение: # 58269Сообщение nokra »

Rammstein - Zeit - 2022 (VinylRip DSD128, EU Universal Music Group)

Изображение

Rammstein - Zeit ©2022
picЖанр: Industiral
Носитель: LP
Год выпуска: 2022
Лейбл: Universal Music Group
Страна-производитель: EU
Аудио кодек: DSD128
Тип рипа: tracks
Формат записи: 1/5,64MHz
Формат раздачи: 1/5,64MHz
Продолжительность: 00:44:24

Треклист:
01 - Armee Der Tristen (3:31)
02 - Zeit (5:20)
03 - Schwarz (4:20)
04 - Giftig (3:12)
05 - Zick Zack (4:05)
06 - OK (4:03)
07 - Meine Tränen (4:00)
08 - Angst (3:44)
09 - Dicke Titten (3:37)
10 - Lügen (3:53)
11 - Adieu (4:38)

Источник оцифровки: 190162E (new-team)
Код класса состояния винила: Mint
Устройство воспроизведения: EMT 930
Головка звукоснимателя: EMT TSD15
Предварительный усилитель: EMT 155st
АЦП: Korg DS-DAC-10R
Программа-оцифровщик: Audio Gate, VinylStudio (резка на треки)
Обработка: Без обработки. Fade-In-Out - в начале и в конце каждой стороны
Содержание индексной карты (.CUE)


REM GENRE Industrial
REM DATE 2022
REM COMMENT VinylRip DSD128, EU Universal Music Group, Vertigo/Capitol, Rammstein
PERFORMER "Rammstein"
TITLE "Zeit"
FILE "01 - Armee Der Tristen.dsf" WAVE
TRACK 01 AUDIO
TITLE "Armee Der Tristen"
PERFORMER "Rammstein"
INDEX 01 00:00:00
FILE "02 - Zeit.dsf" WAVE
TRACK 02 AUDIO
TITLE "Zeit"
PERFORMER "Rammstein"
INDEX 01 00:00:00
FILE "03 - Schwarz.dsf" WAVE
TRACK 03 AUDIO
TITLE "Schwarz"
PERFORMER "Rammstein"
INDEX 01 00:00:00
FILE "04 - Giftig.dsf" WAVE
TRACK 04 AUDIO
TITLE "Giftig"
PERFORMER "Rammstein"
INDEX 01 00:00:00
FILE "05 - Zick Zack.dsf" WAVE
TRACK 05 AUDIO
TITLE "Zick Zack"
PERFORMER "Rammstein"
INDEX 01 00:00:00
FILE "06 - OK.dsf" WAVE
TRACK 06 AUDIO
TITLE "OK"
PERFORMER "Rammstein"
INDEX 01 00:00:00
FILE "07 - Meine Tränen.dsf" WAVE
TRACK 07 AUDIO
TITLE "Meine Tränen"
PERFORMER "Rammstein"
INDEX 01 00:00:00
FILE "08 - Angst.dsf" WAVE
TRACK 08 AUDIO
TITLE "Angst"
PERFORMER "Rammstein"
INDEX 01 00:00:00
FILE "09 - Dicke Titten.dsf" WAVE
TRACK 09 AUDIO
TITLE "Dicke Titten"
PERFORMER "Rammstein"
INDEX 01 00:00:00
FILE "10 - Lügen.dsf" WAVE
TRACK 10 AUDIO
TITLE "Lügen"
PERFORMER "Rammstein"
INDEX 01 00:00:00
FILE "11 - Adieu.dsf" WAVE
TRACK 11 AUDIO
TITLE "Adieu"
PERFORMER "Rammstein"
INDEX 01 00:00:00

Изображение
Изображение
Изображение
 Скрытый текст. Для просмотра нужно поблагодарить автора за это сообщение
★Nokra ™ ® 7.z ♫★

xDuoo X2S Hi-Res
Fiio M11 Pro Hi-Res :ar:
Ответить

Вернуться в «Vinyl-Rip и Hand-Made»