Adele (Pop)

Ответить
Аватара пользователя
nokra
Сообщения: 3418
Зарегистрирован: 29 ноя 2020, 15:42
Благодарил (а): 954 раза
Поблагодарили: 20417 раз

Adele (Pop)

Сообщение: # 49048Сообщение nokra »

Adele - Easy On Me (SP) (2021) (FLAC)

Adele - Easy On Me

FLAC (tracks), Web Release, skontrolovane Spek a Lossless Audio Checker ...
 Скрытый текст. Для просмотра нужно поблагодарить автора за это сообщение
Изображение
★Nokra ™ ® 7.z ♫★
Аватара пользователя
nokra
Сообщения: 3418
Зарегистрирован: 29 ноя 2020, 15:42
Благодарил (а): 954 раза
Поблагодарили: 20417 раз

Adele (Hi-Res) (Pop)

Сообщение: # 49095Сообщение nokra »

Adele - Easy On Me (2021) FLAC 24 Bit [PMEDIA] ⭐️

Изображение

Info:
Artist: Adele
Song: Easy On Me
Year: 2021
Genre: Pop
Format/Quality: Flac 24-bit/44100Hz

Adele - Easy On Me

:ar: -Encoded & Uploaded by- PMEDIA GROUP ~ :ar:

Изображение
 Скрытый текст. Для просмотра нужно поблагодарить автора за это сообщение
:ar: ( Hi-Res [24 bit/44100Hz] ) :ar:
★Nokra ™ ® 7.z ♫★
Аватара пользователя
nokra
Сообщения: 3418
Зарегистрирован: 29 ноя 2020, 15:42
Благодарил (а): 954 раза
Поблагодарили: 20417 раз

Adele (Hi-Res) (Pop)

Сообщение: # 50999Сообщение nokra »

Adele - 30 (2021) [24 Bit Hi-Res] FLAC [PMEDIA] ⭐️

Изображение

Info:
Artist: Adele
Album: 30
Year: 2021
Genre: Pop
Format/Quality: FLAC 24-bit/44100Hz

Tracklist:↑

01. Strangers By Nature
02. Easy On Me
03. My Little Love
04. Cry Your Heart Out
05. Oh My God
06. Can I Get It
07. I Drink Wine
08. All Night Parking (feat. Erroll Garner)
09. Woman Like Me
10. Hold On
11. To Be Loved
12. Love Is A Game

:ar: -Encoded & Uploaded by- PMEDIA GROUP ~ :ar:

Изображение
 Скрытый текст. Для просмотра нужно поблагодарить автора за это сообщение
:ar: ( Hi-Res [24 bit/44100Hz] ) :ar:
★Nokra ™ ® 7.z ♫★
Аватара пользователя
nokra
Сообщения: 3418
Зарегистрирован: 29 ноя 2020, 15:42
Благодарил (а): 954 раза
Поблагодарили: 20417 раз

Re: Adele (Pop)

Сообщение: # 51047Сообщение nokra »

Adele - 30 [Target Exclusive] (2021) FLAC (3 bonusy)

Название: 30 [Target Exclusive]
Исполнитель: Adele
Год: 2021
Жанр: Funk, Soul, Blues, Pop
Страна: United Kingdom
Лейбл:Columbia – 19439941962

Продолжительность: 01:10:07
Формат/Кодек: FLAC
Битрейт аудио: Lossless
Тип рипа: tracks+.cue

Track:
01. Strangers By Nature [00:03:02]
02. Easy On Me [00:03:44]
03. My Little Love [00:06:29]
04. Cry Your Heart Out [00:04:15]
05. Oh My God [00:03:45]
06. Can I Get It [00:03:30]
07. I Drink Wine [00:06:16]
08. All Night Parking (With Erroll Garner) (Interlude) [00:02:41]
09. Woman Like Me [00:05:00]
10. Hold On [00:06:06]
11. To Be Loved [00:06:43]
12. Love Is A Game [00:06:43]
13. Wild Wild West [00:03:46]
14. Can't Be Together [00:04:17]
15. Easy On Me (With Chris Stapleton) [00:03:44]

Изображение

FLAC (tracks), Web Release, skontrolovane Spek a Lossless Audio Checker ...
 Скрытый текст. Для просмотра нужно поблагодарить автора за это сообщение
★Nokra ™ ® 7.z ♫★
Аватара пользователя
nokra
Сообщения: 3418
Зарегистрирован: 29 ноя 2020, 15:42
Благодарил (а): 954 раза
Поблагодарили: 20417 раз

Adele (Hi-Res) (Pop)

Сообщение: # 51048Сообщение nokra »

Adele - 25 [24-bit Hi-Res] (2015) (FLAC)

Изображение

Название: 25
Исполнитель: Adele
Год: 2015
Жанр: Ballad, Neo-Soul, Piano-Blues
Страна: United Kingdom

Продолжительность: 00:48:22
Формат/Кодек: FLAC
Тип рипа: Tracks
Битрейт аудио: Lossless
Разрядность: 24 Bit/96 kHz
Носитель: WEB

Track:
01 Hello (4:55)
02 Send My Love (To Your New Lover) (3:43)
03 I Miss You (5:49)
04 When We Were Young (4:51)
05 Remedy (4:05)
06 Water Under The Bridge (4:00)
07 River Lea (3:45)
08 Love In The Dark (4:46)
09 Million Years Ago (3:47)
10 All I Ask (4:32)
11 Sweetest Devotion (4:12)

DR.

foobar2000 1.5.5 / Замер динамического диапазона (DR) 1.1.1
Дата отчёта: 2021-10-25 15:55:39

--------------------------------------------------------------------------------
Анализ: Adele / 25
--------------------------------------------------------------------------------

DR Пики RMS Продолжительность трека
--------------------------------------------------------------------------------
DR5 -0.80 дБ -8.82 дБ 4:55 01-Hello
DR6 -0.80 дБ -8.29 дБ 3:43 02-Send My Love (To Your New Lover)
DR4 -0.80 дБ -6.87 дБ 5:48 03-I Miss You
DR6 -0.80 дБ -9.85 дБ 4:51 04-When We Were Young
DR5 -0.80 дБ -8.62 дБ 4:05 05-Remedy
DR6 -0.80 дБ -7.95 дБ 4:01 06-Water Under the Bridge
DR4 -0.80 дБ -7.16 дБ 3:45 07-River Lea
DR5 -0.80 дБ -8.77 дБ 4:46 08-Love in the Dark
DR8 -0.80 дБ -9.78 дБ 3:47 09-Million Years Ago
DR5 -0.80 дБ -8.64 дБ 4:32 10-All I Ask
DR5 -0.80 дБ -7.38 дБ 4:11 11-Sweetest Devotion
--------------------------------------------------------------------------------

Количество треков: 11
Реальные значения DR: DR5

Частота: 96000 Гц
Каналов: 2
Разрядность: 24
Битрейт: 2996 кбит/с
Кодек: FLAC

FLAC (tracks), Web Release, skontrolovane Spek a Lossless Audio Checker ...
 Скрытый текст. Для просмотра нужно поблагодарить автора за это сообщение
★Nokra ™ ® 7.z ♫★
Аватара пользователя
nokra
Сообщения: 3418
Зарегистрирован: 29 ноя 2020, 15:42
Благодарил (а): 954 раза
Поблагодарили: 20417 раз

Re: Adele (Pop)

Сообщение: # 51128Сообщение nokra »

Adele - 30 (Target Exclusive) (2021) [24 Bit Hi-Res] FLAC [PMEDIA] ⭐️

Изображение

Info:
Artist: Adele
Album: 30 (Target Exclusive)
Year: 2021
Genre: Pop
Format/Quality: FLAC 24-bit/48000Hz

Tracklist:↑
01. Strangers By Nature
02. Easy On Me
03. My Little Love
04. Cry Your Heart Out
05. Oh My God
06. Can I Get It
07. I Drink Wine
08. All Night Parking (With Erroll Garner) (Interlude)
09. Woman Like Me
10. Hold On
11. To Be Loved
12. Love Is A Game
13. Wild Wild West
14. Can't Be Together
15. Easy On Me (With Chris Stapleton)

:ar: -Encoded & Uploaded by- PMEDIA GROUP ~ :ar:

Изображение
 Скрытый текст. Для просмотра нужно поблагодарить автора за это сообщение
:ar: ( Hi-Res [24 bit/44100Hz] ) :ar:
★Nokra ™ ® 7.z ♫★
Ответить

Вернуться в «Pop (lossless)»