Dymytry (Rock)

Аватара пользователя
nokra
Сообщения: 4242
Зарегистрирован: 29 ноя 2020, 15:42
Благодарил (а): 1343 раза
Поблагодарили: 26568 раз

Re: Dymytry (Rock)

Сообщение: # 27456Сообщение nokra »

Dymytry - Živě 2015 (2015)

Tracklist :

01. Smysl už nehledám
02. D.O.S.T.
03. Ne nikdy!
04. Síť pro sociály
05. Plameňáci
06. Občas pocit mám
07. Lunapark
08. Zase mi lhali
09. Dejte mi pít
10. Kdo ví co přijde, Harpyje, Benzín (unplugged)
11. Z pekla
12. Média
13. Ocelová parta
14. Ztracená generace
15. Strážná věž

Flac (tracks), No Covers, 579 MB

Heslo: wardog
 Скрытый текст. Для просмотра нужно поблагодарить автора за это сообщение
Изображение
★Nokra ™ ® 7.z ♫★
Аватара пользователя
nokra
Сообщения: 4242
Зарегистрирован: 29 ноя 2020, 15:42
Благодарил (а): 1343 раза
Поблагодарили: 26568 раз

Re: Dymytry (Rock)

Сообщение: # 27460Сообщение nokra »

Dymytry - Neonarcis (2012)

Tracklist :

01. Lunapark
02. Média
03. Síť pro sociály
04. Skoč
05. Rédijo
06. Neonarcis
07. Stáváš se potravou
08. Pod nuselákem
09. Jsem nadšenej
10. Dymytry
11. Ocelová parta
12. Harpyje
13. Hanglická

Flac (tracks), No Covers, 369 MB


Heslo: wardog
 Скрытый текст. Для просмотра нужно поблагодарить автора за это сообщение
Изображение
★Nokra ™ ® 7.z ♫★
Аватара пользователя
nokra
Сообщения: 4242
Зарегистрирован: 29 ноя 2020, 15:42
Благодарил (а): 1343 раза
Поблагодарили: 26568 раз

Re: Dymytry (Rock)

Сообщение: # 27462Сообщение nokra »

Dymytry - Neser (2010)



Tracklist :

01. Squadra Razora
02. Dejte mi pít
03. D.O.S.T.
04. Kdo ví co přijde
05. Neser!
06. Smysl už nehledám
07. Kazatel
08. Benzín
09. Hamerika
10. Strážná věž
11. Protekční synek

Flac (tracks), No Covers, 323 MB

Heslo: wardog
 Скрытый текст. Для просмотра нужно поблагодарить автора за это сообщение
Изображение
★Nokra ™ ® 7.z ♫★
Аватара пользователя
nokra
Сообщения: 4242
Зарегистрирован: 29 ноя 2020, 15:42
Благодарил (а): 1343 раза
Поблагодарили: 26568 раз

Re: Dymytry (Rock)

Сообщение: # 37699Сообщение nokra »

Dymytry - Beast from the East (2018) (FLAC)

01 Awaking the Monster
02 Hope
03 Touchdown
04 Bless Us

FLAC (tracks), Web Release, skontrolovane Spek a Lossless Audio Checker ...
 Скрытый текст. Для просмотра нужно поблагодарить автора за это сообщение
Изображение
★Nokra ™ ® 7.z ♫★
Аватара пользователя
nokra
Сообщения: 4242
Зарегистрирован: 29 ноя 2020, 15:42
Благодарил (а): 1343 раза
Поблагодарили: 26568 раз

Re: Dymytry (Rock)

Сообщение: # 37701Сообщение nokra »

Dymytry , Traktor - Monster Meeting (SP) (2020) (FLAC)

01 Monster Meeting

FLAC (tracks), Web Release, skontrolovane Spek a Lossless Audio Checker ...
 Скрытый текст. Для просмотра нужно поблагодарить автора за это сообщение
Изображение
★Nokra ™ ® 7.z ♫★
Аватара пользователя
nokra
Сообщения: 4242
Зарегистрирован: 29 ноя 2020, 15:42
Благодарил (а): 1343 раза
Поблагодарили: 26568 раз

Re: Dymytry (Rock)

Сообщение: # 37703Сообщение nokra »

Dymytry , Traktor - Spolu Se Cítíme Živí (SP) (2020) (FLAC)

01 Spolu Se Cítíme Živí

FLAC (tracks), Web Release, skontrolovane Spek a Lossless Audio Checker ...
 Скрытый текст. Для просмотра нужно поблагодарить автора за это сообщение
Изображение
★Nokra ™ ® 7.z ♫★
Аватара пользователя
nokra
Сообщения: 4242
Зарегистрирован: 29 ноя 2020, 15:42
Благодарил (а): 1343 раза
Поблагодарили: 26568 раз

Re: Dymytry (Rock)

Сообщение: # 37704Сообщение nokra »

Dymytry - Černí Andělé (SP) (2020) (FLAC)

01 Černí Andělé

FLAC (tracks), Web Release, skontrolovane Spek a Lossless Audio Checker ...
 Скрытый текст. Для просмотра нужно поблагодарить автора за это сообщение
Изображение
★Nokra ™ ® 7.z ♫★
Аватара пользователя
nokra
Сообщения: 4242
Зарегистрирован: 29 ноя 2020, 15:42
Благодарил (а): 1343 раза
Поблагодарили: 26568 раз

Dymytry (Hi-Res) (Rock)

Сообщение: # 53502Сообщение nokra »

Dymytry - Revolt (2022) (24bit-44.1kHz) (FLAC)



Изображение


Название: Revolt [24-Bit, Hi-Res]
Исполнитель: Dymytry
Год: 2022
Жанр: Psy-Core-Metal
Country:Чехословакия

Продолжительность: 00:48:12
Формат/Кодек: FLAC
Битрейт аудио: Lossless|WEB-DL [24bit/44.1kHz]
---------------------------------------------------------------------------------------------------

01. Revolt (3:33)
02. Stronger (4:12)
03. 300 (Feat. Joakim Lindbäck Eriksson) (4:55)
04. Never Gonna Die (4:10)
05. Rise and Shine (3:23)
06. Awaking the Monster (3:39)
07. Until the World Knows Why (4:44)
08. Touchdown (3:51)
09. Tick Tock (4:06)
10. Hope (3:57)
11. Somebody's Watching Me (Feat. Victor Smolski) (2:48)
12. Chernobyl 2.0 (4:54)
--------------------------------------------------------------------------------
foobar2000 1.6.5 / Dynamic Range Meter 1.1.1

--------------------------------------------------------------------------------
Analyzed: Dymytry / Revolt
--------------------------------------------------------------------------------

DR Peak RMS Duration Track
--------------------------------------------------------------------------------
DR6 -0.10 dB -7.16 dB 3:33 01-Revolt
DR5 -0.10 dB -7.23 dB 4:12 02-Stronger
DR6 -0.10 dB -7.17 dB 4:55 03-300 (Feat. Joakim Lindbäck Eriksson)
DR6 -0.10 dB -7.87 dB 4:10 04-Never Gonna Die
DR6 -0.10 dB -9.05 dB 3:23 05-Rise and Shine
DR6 -0.10 dB -7.92 dB 3:39 06-Awaking the Monster
DR7 -0.10 dB -8.45 dB 4:44 07-Until the World Knows Why
DR7 -0.10 dB -8.69 dB 3:51 08-Touchdown
DR6 -0.10 dB -7.43 dB 4:06 09-Tick Tock
DR6 -0.10 dB -8.25 dB 3:57 10-Hope
DR7 -0.10 dB -7.98 dB 2:48 11-Somebody's Watching Me (Feat. Victor Smolski)
DR7 -0.10 dB -8.36 dB 4:54 12-Chernobyl 2.0
--------------------------------------------------------------------------------

Number of tracks: 12
Official DR value: DR6

Samplerate: 44100 Hz
Channels: 2
Bits per sample: 24
Bitrate: 1648 kbps
Codec: FLAC
--------------------------------

FLAC (tracks), Web Release, skontrolovane Spek , Lossless Audio Checker , auCDtectTaskManager ...)
 Скрытый текст. Для просмотра нужно поблагодарить автора за это сообщение
За все время своей карьеры команда исполняет песни на чешском и уже реализовала пять полноформатников в стиле Psy-Core, как называют своё творчество сам коллектив. Не так давно DYMYTRY взяли в свои ряды к своему постоянному фронтмену Jan»у “Protheus” Macků англоязычного вокалиста Alen»а „A.L.“ Ljubić»f, с которым записали новую версию своей последней и самой успешной работы «Revolt» на английском. Она будет реализована 14 января 2022 года через AFM Records.
★Nokra ™ ® 7.z ♫★
Ответить

Вернуться в «Czechoslovakia (lossless)»