top.mail.ru
Рок Восточной Европы (forum КалендарьОбратная связь
Старый 06.05.2013, 17:07   #1
kaak
Senior Member
 
Регистрация: 01.06.2009
Возраст: 56
Сообщений: 9,084
Russian Federation
Город :
Сказали 'Спасибо' за это сообщение. :
6 за это сообщение
94,824 Всего
Вес репутации: 1017026
kaak has a reputation beyond reputekaak has a reputation beyond reputekaak has a reputation beyond reputekaak has a reputation beyond reputekaak has a reputation beyond reputekaak has a reputation beyond reputekaak has a reputation beyond reputekaak has a reputation beyond reputekaak has a reputation beyond reputekaak has a reputation beyond reputekaak has a reputation beyond repute
Icon CD Figyelem Felvétel (Jazz / Rock)

"Figyelem Felvétel" - "Éjszaka a stúdióban (Session At Night)" (1979, CD edition 2009)



Tracklist:

01. Ördögi kísértés - 08:09
02. Michaela - 02:59
03. Vonzások - Ünnep - 09:31
04. Super 400 - 05:05
05. Baseball Blues - 06:18
06. Sárga lap - 0:57
07. Operett - 07:18

"Figyelem Felvétel":
Péter Dandó - bass guitar (01, 03 - 05, 07);
Imre Kőszegi - drums (01, 03 - 07), synthesizer (Moog) (05);
Gyula Babos - guitar (01, 04, 05);
János Solti - percussion (01, 03, 04, 06)
Béla Szakcsi Lakatos - piano (01 - 04, 07), symthesizer (Moog) (03, 04, 07);
László Dés - saxophone (01, 03, 07)

Guests:
János Karácsony - guitar (01);
István Lerch - strings (03, 07), synthesizer (Moog) (07);
János Másik - piano (03, 05), synthesizer (Moog) (05, 07)

Скрытый текст могут видеть только зарегистрированные пользователи, нажав "Спасибо"

Последний раз редактировалось kaak; 07.05.2013 в 08:33.
kaak вне форума  
Сказали 'Спасибо' за это сообщение.
Ответить с цитированием
8 пользователя(ей) сказали cпасибо:
Antiquar (20.05.2013), Domi (29.12.2015), GrandS (10.03.2017), malt07 (06.05.2013), Papa22 (06.05.2013), Paunch (06.05.2013), tzakas (08.05.2013), vknish (06.05.2013)
Сказали спасибо:
marizzy (02.07.2018), robogo (11.06.2018), Myway (29.04.2018), Maxxy (28.10.2017), андамо (16.09.2017), Владимир Васильевич (02.05.2017)
Старый 07.05.2013, 08:33   #2
vknish
Junior Member
 
Регистрация: 21.03.2010
Сообщений: 41
Ukraine
Город : Kiev
Сказали 'Спасибо' за это сообщение. :
0 за это сообщение
0 Всего
Вес репутации: 0
vknish has a spectacular aura aboutvknish has a spectacular aura aboutvknish has a spectacular aura about
По умолчанию Re: Figyelem Felvétel (Jazz / Rock)

Спасибо большое! Понравился альбом.
Одно плохо, что рип "без руля и без ветрил".
vknish вне форума  
Сказали 'Спасибо' за это сообщение.
Ответить с цитированием
Старый 09.05.2013, 18:34   #3
Simurg
Senior Member
 
Аватар для Simurg
 
Регистрация: 06.06.2009
Сообщений: 562
Russian Federation
Город : Novosibirsk
Сказали 'Спасибо' за это сообщение. :
0 за это сообщение
4,681 Всего
Вес репутации: 51713
Simurg has a reputation beyond reputeSimurg has a reputation beyond reputeSimurg has a reputation beyond reputeSimurg has a reputation beyond reputeSimurg has a reputation beyond reputeSimurg has a reputation beyond reputeSimurg has a reputation beyond reputeSimurg has a reputation beyond reputeSimurg has a reputation beyond reputeSimurg has a reputation beyond reputeSimurg has a reputation beyond repute
Post Re: Figyelem Felvétel (Jazz / Rock)

Цитата:
Сообщение от vknish Посмотреть сообщение
Одно плохо, что рип "без руля и без ветрил".
Руль-то сделать можно. Вот cue-файл:


REM GENRE Jazz
REM DATE 1979
REM DISCID 51097e06
REM COMMENT "CUE Corrector"
PERFORMER "Various Artists"
TITLE "Éjszaka a stúdióban"
FILE "101. Ordogi kisertes (Devilish Temptation).flac" WAVE
TRACK 1 AUDIO
TITLE "Ördögi kísértés (Devilish Temptation)"
PERFORMER "Various Artists"
INDEX 01 00:00:00
FILE "102. Michaela.flac" WAVE
TRACK 2 AUDIO
TITLE "Michaela"
PERFORMER "Various Artists"
INDEX 01 00:00:00
FILE "103. Vonzasok, Unnep (Attractions, Feast).flac" WAVE
TRACK 3 AUDIO
TITLE "Vonzások - Ünnep (Attractions - Feast)"
PERFORMER "Various Artists"
INDEX 01 00:00:00
FILE "104. Super 400.flac" WAVE
TRACK 4 AUDIO
TITLE "Super 400"
PERFORMER "Various Artists"
INDEX 01 00:00:00
FILE "105. Baseball Blues.flac" WAVE
TRACK 5 AUDIO
TITLE "Baseball Blues"
PERFORMER "Various Artists"
INDEX 01 00:00:00
FILE "106. Sarga lap, Operett (Yellow Card, Operetta).flac" WAVE
TRACK 6 AUDIO
TITLE "Sárga lap, Operett (Yellow Card, Operetta)"
PERFORMER "Various Artists"
INDEX 01 00:00:00
Simurg вне форума  
Сказали 'Спасибо' за это сообщение.
Ответить с цитированием
Старый 09.05.2013, 18:52   #4
Simurg
Senior Member
 
Аватар для Simurg
 
Регистрация: 06.06.2009
Сообщений: 562
Russian Federation
Город : Novosibirsk
Сказали 'Спасибо' за это сообщение. :
0 за это сообщение
4,681 Всего
Вес репутации: 51713
Simurg has a reputation beyond reputeSimurg has a reputation beyond reputeSimurg has a reputation beyond reputeSimurg has a reputation beyond reputeSimurg has a reputation beyond reputeSimurg has a reputation beyond reputeSimurg has a reputation beyond reputeSimurg has a reputation beyond reputeSimurg has a reputation beyond reputeSimurg has a reputation beyond reputeSimurg has a reputation beyond repute
Post Re: Figyelem Felvétel (Jazz / Rock)

Интересно другое. Figyelem Felvétel (Внимание, запись) - такой группы не существовало. Просто несколько известных венгерских рок- и джаз-музыкантов приняли участие в джем-сейшене, который был записан на пластинку. Убедиться в этом можно, например, на сайте издателя:

[Ссылки могут видеть только зарегистрированные пользователи. ]

В дальнейшем этот проект получил развитие в другом проекте (с несколько изменённым составом участников), известным под названием Supergroup.

[Ссылки могут видеть только зарегистрированные пользователи. ]
Simurg вне форума  
Сказали 'Спасибо' за это сообщение.
Ответить с цитированием
Старый 19.05.2013, 14:16   #5
vknish
Junior Member
 
Регистрация: 21.03.2010
Сообщений: 41
Ukraine
Город : Kiev
Сказали 'Спасибо' за это сообщение. :
0 за это сообщение
0 Всего
Вес репутации: 0
vknish has a spectacular aura aboutvknish has a spectacular aura aboutvknish has a spectacular aura about
По умолчанию Re: Figyelem Felvétel (Jazz / Rock)

Simurg!!!
Спасибо за руль и за доп. информацию.
vknish вне форума  
Сказали 'Спасибо' за это сообщение.
Ответить с цитированием
Ответ

Социальные закладки


Здесь присутствуют: 1 (пользователей: 0 , гостей: 1)
 
Опции темы

Ваши права в разделе
Вы не можете создавать новые темы
Вы не можете отвечать в темах
Вы не можете прикреплять вложения
Вы не можете редактировать свои сообщения

BB коды Вкл.
Смайлы Вкл.
[IMG] код Вкл.
HTML код Выкл.

Быстрый переход

Реклама наших спонсоров

Текущее время: 02:41. Часовой пояс GMT +4.
LiveInternet Top100