top.mail.ru
Рок Восточной Европы (forum КалендарьОбратная связь
Старый 08.07.2019, 02:30   #1
Antiquar
Administrator
 
Аватар для Antiquar
 
Регистрация: 22.05.2009
Сообщений: 19,178
Моя страна
Город : Мой город
Сказали 'Спасибо' за это сообщение. :
13 за это сообщение
104,694 Всего
Вес репутации: 10
Antiquar has a reputation beyond reputeAntiquar has a reputation beyond reputeAntiquar has a reputation beyond reputeAntiquar has a reputation beyond reputeAntiquar has a reputation beyond reputeAntiquar has a reputation beyond reputeAntiquar has a reputation beyond reputeAntiquar has a reputation beyond reputeAntiquar has a reputation beyond reputeAntiquar has a reputation beyond reputeAntiquar has a reputation beyond repute
Icon HD Super Grup Electrecord (Pop) (Ro) {24Bit 96kHz}




Super Grup Electrecord - Sugar Baby Love (1975)
Electrecord STM-EDE 01114 (Romania)
LP rip by Antiquar

A1 Sugar Baby Love (Dragoste Pentru O Fată Dulce)
Vocals – Iuliu Merca, Petre Iordache
A2 And I Love You So (Te Iubesc Atît De Mult)
Vocals – Sergiu Zagardan
A3 Do You Wanna Dance (Vrei Să Dansezi)
Vocals – Iuliu Merca, Mircea Vlad, Petre Iordache
A4 Candy Baby (Fată Dulce)
Vocals – Petre Iordache, Sergiu Zagardan
A5 Do It Good (Fă-o Bine)
Vocals – Gil Dobrică
A6 I'm Stone In Love With You (Sînt Îndrăgostită Nebuneşte De Tine)
Vocals – Mircea Vlad

B1 Welcome Home (Bun Venit Acasă)
Vocals – Iuliu Merca, Sergiu Zagardan
B2 Oh, My, My
Vocals – Păunița Ionescu
B3 Boogie On Reggae Woman (Fata Mea, Hai Să Dansăm Boogie Și Reggae)
Vocals – Iuliu Merca
B4 Never Can Say Goodbye (Nu Pot Spune La Revedere)
Vocals – Valeria Puși
B5 My Eyes Adored You (Ochii Mei Te-au Adorat)
Vocals – Iuliu Merca, Mircea Vlad, Petre Iordache

Band – Formația Super Grup Electrecord
Bass – Dan Dimitriu
Conductor [Dirijor], Tenor Saxophone – Dan Mîndrilă
Guitar – Alexandru Avramovici
Guitar [Double Six], Synthesizer [Moog] – Dan Aldea
Harmonica – Corneliu Ionescu
Trombone – Cornel Meraru
Trumpet – Adrian Iliescu

{24Bit 96kHz}
sergio technology®

Скрытый текст могут видеть только зарегистрированные пользователи, нажав "Спасибо"


foobar2000 1.3.7 / Dynamic Range Meter 1.1.1
log date: 2019-07-08 00:34:21

--------------------------------------------------------------------------------
Analyzed: Super Grup Electrecord / Sugar Baby Love
--------------------------------------------------------------------------------

DR Peak RMS Duration Track
--------------------------------------------------------------------------------
DR12 -4.63 dB -20.28 dB 3:41 01-Sugar Baby Love
DR14 -1.00 dB -21.49 dB 3:23 02-And I Love You So
DR15 -3.67 dB -21.73 dB 2:35 03-Do You Wanna Dance
DR14 -7.24 dB -24.48 dB 3:11 04-Candy Baby
DR15 -6.14 dB -22.78 dB 2:45 05-Do It Good
DR14 -4.33 dB -22.79 dB 3:26 06-I'm Stone In Love With You
DR12 -3.41 dB -19.55 dB 3:26 07-Welcome Home
DR14 -1.00 dB -19.22 dB 4:01 08-Oh, My, My
DR15 -2.03 dB -20.34 dB 3:47 09-Boogie On Reggae Woman
DR13 -4.01 dB -20.13 dB 3:16 10-Never Can Say Goodbye
DR13 -4.48 dB -20.71 dB 3:36 11-My Eyes Adored You
--------------------------------------------------------------------------------

Number of tracks: 11
Official DR value: DR14
__________________
При необходимости обновления ссылок на мои релизы, пишите в личку
If you need to update the links to my releases, write me a personal message.
Please wait. All links will be restored.
Antiquar вне форума  
Сказали 'Спасибо' за это сообщение.
Ответить с цитированием
Сказали спасибо:
Olatiel (11.10.2019), gorodok11 (07.10.2019), lev37 (30.08.2019), pjpeanutz (30.07.2019), slava (09.07.2019), ALECS (08.07.2019), look1963 (08.07.2019), chriss49c (08.07.2019), их биня (08.07.2019), toril (08.07.2019), jaromirk1 (08.07.2019), Aleksei (08.07.2019), mikov (08.07.2019)
Ответ

Социальные закладки


Здесь присутствуют: 1 (пользователей: 0 , гостей: 1)
 
Опции темы

Ваши права в разделе
Вы не можете создавать новые темы
Вы не можете отвечать в темах
Вы не можете прикреплять вложения
Вы не можете редактировать свои сообщения

BB коды Вкл.
Смайлы Вкл.
[IMG] код Вкл.
HTML код Выкл.

Быстрый переход


Текущее время: 12:36. Часовой пояс GMT +4.
LiveInternet Top100